It is currently Sat Oct 23, 2021 4:52 pm
All times are UTC + 8 hours

[FFmpeg 3.1.3 for ARMHF] first for serviio 1.7

FFmpeg library

[FFmpeg 3.1.3 for ARMHF] first for serviio 1.7

Postby father.mande » Tue Oct 11, 2016 9:02 pm

Hi,

I am please to provide you for test :
FFMpeg V. 3.1.3 ATTENTION command changed to keep OFFICIAL ASUSTOR FFmpeg 2.8.3 available (because, perhaps,some tools want to have 2.8 version to run)
===== FOR ARMHF 1002/1004 etc. models
===== build first to get serviio 1.7 available with all requested options ...

[Name]
ffmpeg313

[Version]
3.1.3
3.1.3 (as original but adapted to APKG structure)

[SPECIAL]
Default command are :
ffmpeg3
ffprobe3
ffserver3 (only if you create the ffserver.conf file (sample is supply) in /usr/local/AppCentral/etc )

BUT it's possible to change it by replacing start-stop.sh script by another one using the "default / standard" name BUT you must DISABLE the FFMpeg 2.8 from ASUSTOR to use default naming ...
ALSO this imply to change for application using "new name" for command ... (ex. serviio 1.7)

[what is supported ?]
use ffmpeg3 command to list encoders, decoders, etc. ... this include x264, x265, etc. etc.
numer and list too large to be listed here.

[How-to]
Q. : Identify the characteristics of a media file
R. : use ffmpeg3 -i (-hide_banner to suppress lib info.)
ex.
Code: Select all
# ffmpeg3 -i /share/Media/ac3_cars.ts  -hide_banner
Input #0, mpegts, from '/share/Media/ac3_cars.ts':
  Duration: 00:00:40.31, start: 0.160067, bitrate: 27363 kb/s
  Program 258
    Stream #0:0[0xe0]: Video: mpeg2video (Main) ([2][0][0][0] / 0x0002), yuv420p(tv), 1280x720 [SAR 1:1 DAR 16:9], 25000 kb/s, 29.97 fps, 29.97 tbr, 90k tbn, 59.94 tbc
    Stream #0:1[0x80](eng): Audio: ac3 (AC-3 / 0x332D4341), 48000 Hz, 5.1(side), fltp, 448 kb/s


[Download]
(New now in my own private server)

APKG 3.1.3 : https://www.father-mande.ovh/A/apkg/ffm ... .3_arm.apk

Please return experience here (with error and log in case ... )
Philippe.
AS5202T /AS5002T / AS202TE / AS1002T
My Blog specific to my APKG : https://blog.father-mande.ovh/
User avatar
father.mande
 
Posts: 1235
Joined: Sat Sep 12, 2015 2:55 am

Return to FFmpeg

  • You cannot post new topics in this forum
    You cannot reply to topics in this forum
    You cannot edit your posts in this forum
    You cannot delete your posts in this forum
    You cannot post attachments in this forum
  • Who is online

    Users browsing this forum: No registered users and 1 guest